V2EX = way to explore
V2EX 是一个关于分享和探索的地方
现在注册
已注册用户请  登录
牛客网
JinTianYi456
V2EX  ›  FFmpeg

ffmpeg 里显示的 Chapter #0:0 是什么意思?

  •  
  •   JinTianYi456 · 9 天前 · 319 次点击
    Input #0, matroska,webm, from 'xxx.mkv':
        Chapter #0:0: start 0.097000, end 1456.988000
        Stream #0:0: Video: h264 (High), yuv420p(progressive), 640x480 [SAR 1:1 DAR 4:3], 29.97 fps, 29.97 tbr, 1k tbn, 59.94 tbc
        Stream #0:1(jpn): Audio: aac (HE-AAC), 48000 Hz, stereo, fltp
        Stream #0:2: Subtitle: ass (default)
    
    目前尚无回复
    关于   ·   FAQ   ·   API   ·   我们的愿景   ·   广告投放   ·   感谢   ·   实用小工具   ·   4753 人在线   最高记录 5168   ·     Select Language
    创意工作者们的社区
    World is powered by solitude
    VERSION: 3.9.8.5 · 17ms · UTC 02:26 · PVG 10:26 · LAX 19:26 · JFK 22:26
    ♥ Do have faith in what you're doing.