Valyrian 最近的时间轴更新
Valyrian

Valyrian

🏢  谷驴 / SWE
V2EX 第 66509 号会员,加入于 2014-06-29 15:50:16 +08:00
今日活跃度排名 7926
有没有支持中文 epub 比较好的 app
iPad  •  Valyrian  •  1 天前  •  最后回复来自 lanmo520
46
Headless chrome 能否实现获取一个 local variable?
Chrome  •  Valyrian  •  2020-07-27 11:14:12 AM  •  最后回复来自 otakustay
2
iPhone XS 上的 FTP 完全坏了?
iPhone  •  Valyrian  •  2018-09-26 12:46:42 PM  •  最后回复来自 PainAndLove
1
chrome 69 的新 ui 胡乱显示域名
Chrome  •  Valyrian  •  2018-09-10 23:00:12 PM  •  最后回复来自 vemon
16
这两天 115 速度感人
  •  2   
    全球工单系统  •  Valyrian  •  2018-09-17 06:45:10 AM  •  最后回复来自 karat24
    36
    Finder 看图片怎么这么慢
    macOS  •  Valyrian  •  2018-08-08 16:14:47 PM  •  最后回复来自 e8c47a0d
    9
    iOS 12 是如何解决 UI 卡顿、掉帧的
  •  2   
    iOS  •  Valyrian  •  2018-06-09 08:40:55 AM  •  最后回复来自 zitengdu
    10
    115 好几个页面都挂了?
    全球工单系统  •  Valyrian  •  2018-03-18 17:33:06 PM  •  最后回复来自 fetich
    4
    不知从什么时候开始,买什么东西之前都要调查清楚
    生活  •  Valyrian  •  2017-12-27 11:31:59 AM  •  最后回复来自 cominghome
    30
    iOS 的全局搜索
    iOS  •  Valyrian  •  2017-12-05 13:35:14 PM  •  最后回复来自 QAPTEAWH
    2
    Valyrian 最近回复了
    卧槽,是时候搞个安卓平板了
    14 天前
    回复了 Valyrian 创建的主题 iPad 有没有支持中文 epub 比较好的 app
    @CX
    @Dorcoin
    这是安卓 app 啊老哥们
    14 天前
    回复了 Valyrian 创建的主题 iPad 有没有支持中文 epub 比较好的 app
    @callmesmc 苹果真的是自废武功。。不然也不会这么找第三方的
    18 天前
    回复了 Awes0me 创建的主题 iPad M2 iPad Pro 12.9 的待机耗电简直离谱
    iCloud 设置里面那个 find my 吗
    19 天前
    回复了 Awes0me 创建的主题 iPad M2 iPad Pro 12.9 的待机耗电简直离谱
    同时在用 m1 的 11 和 12.9 ,11 明显续航更好
    不就是码农吗?在外面混别拿自己太当回事
    92 天前
    回复了 polobug 创建的主题 iPhone iPhone 相机拍猫,毛发会变得怪异
    照片开了 raw 后自带的照片 app 看的话依然会被锐化,不过 app 的锅,文件是好的
    92 天前
    回复了 polobug 创建的主题 iPhone iPhone 相机拍猫,毛发会变得怪异
    照片其实开 proraw 可解,视频就没办法了,prores 实在太大了
    @1054850490 这个也可以自动化的,一条命令变成三条命令而已
    数一下时间和总帧数对比一下吧

    https://stackoverflow.com/questions/2017843/fetch-frame-count-with-ffmpeg
    https://superuser.com/questions/650291/how-to-get-video-duration-in-seconds

    你这个视频是 30fps 但 60 秒只有 947 帧

    $ ffmpeg -i 우주소녀\ 루다\ 부탁해-宽度 720-码率 897.992-编码 vp9-频道名\(지구젤리\)-网页地址 flh-q3MpgVg.mkv
    ffmpeg version 5.1 Copyright (c) 2000-2022 the FFmpeg developers
    built with Apple clang version 13.1.6 (clang-1316.0.21.2.5)
    configuration: --prefix=/opt/homebrew/Cellar/ffmpeg/5.1 --enable-shared --enable-pthreads --enable-version3 --cc=clang --host-cflags= --host-ldflags= --enable-ffplay --enable-gnutls --enable-gpl --enable-libaom --enable-libbluray --enable-libdav1d --enable-libmp3lame --enable-libopus --enable-librav1e --enable-librist --enable-librubberband --enable-libsnappy --enable-libsrt --enable-libtesseract --enable-libtheora --enable-libvidstab --enable-libvmaf --enable-libvorbis --enable-libvpx --enable-libwebp --enable-libx264 --enable-libx265 --enable-libxml2 --enable-libxvid --enable-lzma --enable-libfontconfig --enable-libfreetype --enable-frei0r --enable-libass --enable-libopencore-amrnb --enable-libopencore-amrwb --enable-libopenjpeg --enable-libspeex --enable-libsoxr --enable-libzmq --enable-libzimg --disable-libjack --disable-indev=jack --enable-videotoolbox --enable-neon
    libavutil 57. 28.100 / 57. 28.100
    libavcodec 59. 37.100 / 59. 37.100
    libavformat 59. 27.100 / 59. 27.100
    libavdevice 59. 7.100 / 59. 7.100
    libavfilter 8. 44.100 / 8. 44.100
    libswscale 6. 7.100 / 6. 7.100
    libswresample 4. 7.100 / 4. 7.100
    libpostproc 56. 6.100 / 56. 6.100
    Input #0, matroska,webm, from '우주소녀 루다 부탁해-宽度 720-码率 897.992-编码 vp9-频道名(지구젤리)-网页地址 flh-q3MpgVg.mkv':
    Metadata:
    ENCODER : Lavf59.16.100
    Duration: 00:01:00.07, start: 0.000000, bitrate: 594 kb/s
    Stream #0:0(eng): Video: vp9 (Profile 0), yuv420p(tv, smpte170m/bt470bg/bt709), 720x1228, SAR 1:1 DAR 180:307, 30 fps, 30 tbr, 1k tbn (default)
    Metadata:
    DURATION : 00:00:59.999000000
    Stream #0:1: Audio: aac (LC), 44100 Hz, stereo, fltp (default)
    Metadata:
    HANDLER_NAME : ISO Media file produced by Google Inc.
    VENDOR_ID : [0][0][0][0]
    DURATION : 00:01:00.070000000
    At least one output file must be specified

    $ ffprobe -v error -show_entries format=duration -of default=noprint_wrappers=1:nokey=1 우주소녀\ 루다\ 부탁해-宽度 720-码率 897.992-编码 vp9-频道名\(지구젤리\)-网页地址 flh-q3MpgVg.mkv
    60.070000

    $ ffprobe -v error -select_streams v:0 -count_packets -show_entries stream=nb_read_packets -of csv=p=0 우주소녀\ 루다\ 부탁해-宽度 720-码率 897.992-编 码 vp9-频道名\(지구젤리\)-网页地址 flh-q3MpgVg.mkv
    947
    关于   ·   帮助文档   ·   API   ·   FAQ   ·   我们的愿景   ·   广告投放   ·   感谢   ·   实用小工具   ·   2749 人在线   最高记录 5497   ·     Select Language
    创意工作者们的社区
    World is powered by solitude
    VERSION: 3.9.8.5 · 71ms · UTC 06:20 · PVG 14:20 · LAX 22:20 · JFK 01:20
    Developed with CodeLauncher
    ♥ Do have faith in what you're doing.